Helloween

mŕtve linky
Los Rios
Metalový král
Metalový král
Príspevky: 1428
Dátum registrácie: 31 Okt 2012, 12:32

Helloween

Príspevokod užívateľa Los Rios » 01 Máj 2013, 16:10

Helloween - Live at Loud Park 2012 [2012, Power Metal, HDTV 1080i]

Obrázok
Obrázok

Kód: Vybrať všetko

Complete name                            : D:\Видео\Helloween LoudPark2012 in Japan.mkv
Format                                   : Matroska
Format version                           : Version 2
File size                                : 3.85 GiB
Duration                                 : 27mn 41s
Overall bit rate mode                    : Variable
Overall bit rate                         : 19.9 Mbps
Encoded date                             : UTC 2013-04-30 09:14:48
Writing application                      : mkvmerge v4.0.0 ('The Stars were mine') сборка от Jun 11 2010 23:24:27
Writing library                          : libebml v1.0.0 + libmatroska v1.0.0

Video
ID                                       : 2
Format                                   : MPEG Video
Format version                           : Version 2
Format profile                           : Main@High
Format settings, BVOP                    : No
Format settings, Matrix                  : Custom
Codec ID                                 : V_MPEG2
Codec ID/Info                            : MPEG 1 or 2 Video
Duration                                 : 27mn 41s
Bit rate mode                            : Variable
Maximum bit rate                         : 24.0 Mbps
Width                                    : 1 920 pixels
Height                                   : 1 080 pixels
Display aspect ratio                     : 16:9
Frame rate mode                          : Constant
Frame rate                               : 29.970 fps
Color space                              : YUV
Chroma subsampling                       : 4:2:0
Bit depth                                : 8 bits
Scan type                                : Interlaced
Scan order                               : Top Field First
Compression mode                         : Lossy
Time code of first frame                 : 15:11:26:17
Time code source                         : Group of pictures header
Default                                  : Yes
Forced                                   : No
Color primaries                          : BT.709
Transfer characteristics                 : BT.709
Matrix coefficients                      : BT.709

Audio
ID                                       : 1
Format                                   : AAC
Format/Info                              : Advanced Audio Codec
Format profile                           : LC
Codec ID                                 : A_AAC
Duration                                 : 27mn 41s
Channel(s)                               : 2 channels
Channel positions                        : Front: L R
Sampling rate                            : 48.0 KHz
Compression mode                         : Lossy
Delay relative to video                  : -67ms
Default                                  : Yes
Forced                                   : No


screens
http://i48.fastpic.ru/big/2013/0501/84/ ... a25784.png
http://i48.fastpic.ru/big/2013/0501/f7/ ... png?noht=1
http://i48.fastpic.ru/big/2013/0501/d8/ ... 541fd8.png
http://i48.fastpic.ru/big/2013/0501/b0/ ... 4703b0.png

Kód: Vybrať všetko

1. Are You Metal?
2. Where The Sinners Go
3. Power
Interview
4. Burning Sun
5. Dr. Stein


Kód: Vybrať všetko

http://share-rapid.com/stahuj/4260145/helloween-loudpark2012-in-japan-part1.rar
http://share-rapid.com/stahuj/4260147/helloween-loudpark2012-in-japan-part2.rar
http://share-rapid.com/stahuj/4260154/helloween-loudpark2012-in-japan-part3.rar
http://share-rapid.com/stahuj/4260162/helloween-loudpark2012-in-japan-part4.rar


Kód: Vybrať všetko

http://uloz.to/xc8cMPPD/helloween-loudpark2012-in-japan-part1-rar
http://uloz.to/xQpJqeeW/helloween-loudpark2012-in-japan-part2-rar
http://uloz.to/xP4ZENNf/helloween-loudpark2012-in-japan-part3-rar
http://uloz.to/xx7sZUU8/helloween-loudpark2012-in-japan-part4-rar
Všechny příspěvky mnou zde vystavené jsou pouze degustačního charakteru.....ochutnejte a pokud se Vám něco zalíbí, tak neváhejte a podpořte svého oblíbeného interpreta koupí originálního nosiče, nebo zajděte na koncert. Díky že podporujete underground .....
Los Rios
Metalový král
Metalový král
Príspevky: 1428
Dátum registrácie: 31 Okt 2012, 12:32

Re: Helloween

Príspevokod užívateľa Los Rios » 02 Máj 2013, 14:05

Helloween - Nabataea [2012, Power Metal, HDTV 1080i]



screens
http://i46.fastpic.ru/big/2013/0502/19/ ... 700e19.png
http://i46.fastpic.ru/big/2013/0502/15/ ... 4bcf15.png
http://i46.fastpic.ru/big/2013/0502/3d/ ... 38973d.png

Kód: Vybrať všetko

Complete name                            : D:\Видео\Helloween - Nabataea.m2ts
Format                                   : MPEG-TS
File size                                : 569 MiB
Duration                                 : 5mn 51s
Overall bit rate mode                    : Variable
Overall bit rate                         : 13.6 Mbps
Maximum Overall bit rate                 : 40.0 Mbps

Video
ID                                       : 4113 (0x1011)
Menu ID                                  : 1 (0x1)
Format                                   : AVC
Format/Info                              : Advanced Video Codec
Format profile                           : High@L4.0
Format settings, CABAC                   : Yes
Format settings, ReFrames                : 2 frames
Format settings, GOP                     : M=3, N=13
Codec ID                                 : 27
Duration                                 : 5mn 51s
Bit rate                                 : 12.7 Mbps
Width                                    : 1 920 pixels
Height                                   : 1 080 pixels
Display aspect ratio                     : 16:9
Frame rate mode                          : Variable
Color space                              : YUV
Chroma subsampling                       : 4:2:0
Bit depth                                : 8 bits
Scan type                                : MBAFF
Stream size                              : 530 MiB (93%)

Audio
ID                                       : 4352 (0x1100)
Menu ID                                  : 1 (0x1)
Format                                   : AC-3
Format/Info                              : Audio Coding 3
Mode extension                           : CM (complete main)
Format settings, Endianness              : Big
Codec ID                                 : 129
Duration                                 : 5mn 51s
Bit rate mode                            : Constant
Bit rate                                 : 256 Kbps
Channel(s)                               : 2 channels
Channel positions                        : Front: L R
Sampling rate                            : 48.0 KHz
Bit depth                                : 16 bits
Compression mode                         : Lossy
Delay relative to video                  : 15ms
Stream size                              : 10.7 MiB (2%)


Kód: Vybrať všetko

http://share-rapid.com/stahuj/4262021/helloween-nabataea.m2ts
http://uloz.to/xqaH5KKs/helloween-nabataea-m2ts
Všechny příspěvky mnou zde vystavené jsou pouze degustačního charakteru.....ochutnejte a pokud se Vám něco zalíbí, tak neváhejte a podpořte svého oblíbeného interpreta koupí originálního nosiče, nebo zajděte na koncert. Díky že podporujete underground .....
Los Rios
Metalový král
Metalový král
Príspevky: 1428
Dátum registrácie: 31 Okt 2012, 12:32

Re: Helloween

Príspevokod užívateľa Los Rios » 02 Máj 2013, 14:40

Tesarik napísal:Helloween - Nabataea (Video Clip 2012 HD)

Obrázok

Obrázok

*** VIDEO INFO ***
Size: 225 Mb
Time: 05:55 Min
Input Type : XVID(GVC)
Input Size : 1280 x 720
Output Type : YUY2
Output Size : 1280 x 720
FrameRate(Frame/sec) : 0.00 (25.00)


*** AUDIO INFO ***
SampleRate(Sample/sec) : 44100
BitRate(Bit/sample) : 16
Channels : 2
KBitRate(KBit/sec) : 128

Kód: Vybrať všetko

http://download.hellshare.cz/helloween-nabataea-hd-avi/11164973


Kód: Vybrať všetko

http://czshare.com/4730899/Helloween+-++Nabataea+HD+.avi
Všechny příspěvky mnou zde vystavené jsou pouze degustačního charakteru.....ochutnejte a pokud se Vám něco zalíbí, tak neváhejte a podpořte svého oblíbeného interpreta koupí originálního nosiče, nebo zajděte na koncert. Díky že podporujete underground .....

Návrat na "Dead post"

Kto je prítomný

Užívatelia prezerajúci toto fórum: Žiadny pripojení užívatelia