Rammstein

mŕtve linky
Los Rios
Metalový král
Metalový král
Príspevky: 1428
Dátum registrácie: 31 Okt 2012, 12:32

Rammstein

Príspevokod užívateľa Los Rios » 24 Jan 2013, 17:47

Rammstein - Videos 1995-2012 (Disk 1) [2012, Industrial, BDRip 1080p]

Obrázok

Kontejner - MKV
Zdroj - BDRip 1080p
Video - 1920x1080 / 16:9 / 24.000 fps / ~10.0 Mbps
Аudio - DTS Stereo / 48 kHz / 1510 kbps / 24 bits
Size - 4,37 GB
Time - 0:53:19


Obrázok

General

Kód: Vybrať všetko

Unique ID                        : 229081395000313701391877553189871852551 (0xAC5778CA115D943595BC53A5E8AE9C07)
Complete name                    : C:\Rammstein.Videos.1995.-.2012.Disc1.GERMAN.1080p.MBluRay.x264-COPYRiOT.mkv
Format                           : Matroska
Format version                   : Version 2
File size                        : 4.37 GiB
Duration                         : 53mn 19s
Overall bit rate                 : 11.7 Mbps
Movie name                       : WWW.DOWNLOADBOX.ME - cr-rsvone1080p
Encoded date                     : UTC 2012-12-18 00:42:56
Writing application              : mkvmerge v5.7.0 ('The Whirlwind') built on Jul  8 2012 20:08:51
Writing library                  : libebml v1.2.3 + libmatroska v1.3.0

Video
ID                               : 1
Format                           : AVC
Format/Info                      : Advanced Video Codec
Format profile                   : High@L4.1
Format settings, CABAC           : Yes
Format settings, ReFrames        : 4 frames
Format settings, GOP             : M=4, N=51
Codec ID                         : V_MPEG4/ISO/AVC
Duration                         : 53mn 19s
Bit rate                         : 10.0 Mbps
Nominal bit rate                 : 10.6 Mbps
Width                            : 1 920 pixels
Height                           : 1 080 pixels
Display aspect ratio             : 16:9
Frame rate                       : 24.000 fps
Color space                      : YUV
Chroma subsampling               : 4:2:0
Bit depth                        : 8 bits
Scan type                        : Progressive
Bits/(Pixel*Frame)               : 0.201
Stream size                      : 3.73 GiB (85%)
Writing library                  : x264 core 129 r2230 1cffe9f
Encoding settings                : cabac=1 / ref=4 / deblock=1:0:0 / analyse=0x3:0x133 / me=umh / subme=8 / psy=1 / psy_rd=1.00:0.00 / mixed_ref=1 / me_range=16 / chroma_me=1 / trellis=1 / 8x8dct=1 / cqm=0 / deadzone=21,11 / fast_pskip=0 / chroma_qp_offset=-2 / threads=12 / lookahead_threads=2 / sliced_threads=0 / nr=0 / decimate=1 / interlaced=0 / bluray_compat=0 / constrained_intra=0 / bframes=3 / b_pyramid=2 / b_adapt=1 / b_bias=0 / direct=1 / weightb=1 / open_gop=0 / weightp=2 / keyint=250 / keyint_min=24 / scenecut=40 / intra_refresh=0 / rc_lookahead=40 / rc=2pass / mbtree=1 / bitrate=10631 / ratetol=1.0 / qcomp=0.60 / qpmin=0 / qpmax=69 / qpstep=4 / cplxblur=20.0 / qblur=0.5 / ip_ratio=1.40 / aq=1:1.00
Language                         : English

Audio
ID                               : 2
Format                           : DTS
Format/Info                      : Digital Theater Systems
Codec ID                         : A_DTS
Duration                         : 53mn 19s
Bit rate mode                    : Constant
Bit rate                         : 1 510 Kbps
Channel(s)                       : 2 channels
Channel positions                : Front: L R
Sampling rate                    : 48.0 KHz
Bit depth                        : 24 bits
Compression mode                 : Lossy
Stream size                      : 576 MiB (13%)

Menu
00:00:00.000                     : en:00:00:00.000
00:04:04.542                     : en:00:04:04.542
00:08:23.292                     : en:00:08:23.292
00:12:56.292                     : en:00:12:56.292
00:17:23.375                     : en:00:17:23.375
00:21:21.458                     : en:00:21:21.458
00:25:48.333                     : en:00:25:48.333
00:29:44.667                     : en:00:29:44.667
00:33:57.292                     : en:00:33:57.292
00:37:35.042                     : en:00:37:35.042
00:41:42.333                     : en:00:41:42.333
00:45:31.208                     : en:00:45:31.208
00:48:46.083                     : en:00:48:46.083


Kód: Vybrať všetko

01|Du riechst so gut
02|Seemann
03|Rammstein
04|Engel
05|Du hast
06|Du riechst so gut '98
07|Stripped
08|Sonne
09|Links 234
10|Ich will
11|Mutter
12|Feuer frei!
13|Mein Teil


Obrázok

Kód: Vybrať všetko

http://download.hellshare.com/rammstein-videos-1995-2012-disc1-german-1080p-mbluray-x264-copyriot-part1-rar/11190012/
http://download.hellshare.com/rammstein-videos-1995-2012-disc1-german-1080p-mbluray-x264-copyriot-part2-rar/11190027/
http://download.hellshare.com/rammstein-videos-1995-2012-disc1-german-1080p-mbluray-x264-copyriot-part3-rar/11190146/
http://download.hellshare.com/rammstein-videos-1995-2012-disc1-german-1080p-mbluray-x264-copyriot-part4-rar/11190157/
http://download.hellshare.com/rammstein-videos-1995-2012-disc1-german-1080p-mbluray-x264-copyriot-part5-rar/11190332/

Obrázok

Kód: Vybrať všetko

http://czshare.com/4756066/Rammstein.Videos.1995.-.2012.Disc1.GERMAN.1080p.MBluRay.x264-COPYRiOT.part2.rar
http://czshare.com/4756208/Rammstein.Videos.1995.-.2012.Disc1.GERMAN.1080p.MBluRay.x264-COPYRiOT.part3.rar
http://czshare.com/4756451/Rammstein.Videos.1995.-.2012.Disc1.GERMAN.1080p.MBluRay.x264-COPYRiOT.part4.rar
http://czshare.com/4769988/Rammstein.Videos.1995.-.2012.Disc1.GERMAN.1080p.MBluRay.x264-COPYRiOT.part1.rar
http://czshare.com/4771135/Rammstein.Videos.1995.-.2012.Disc1.GERMAN.1080p.MBluRay.x264-COPYRiOT.part5.rar

Obrázok

Kód: Vybrať všetko

http://www.uloz.to/xfbjGRu/rammstein-videos-1995-2012-disc1-german-1080p-mbluray-x264-copyriot-part1-rar
http://www.uloz.to/xTpgGXW/rammstein-videos-1995-2012-disc1-german-1080p-mbluray-x264-copyriot-part2-rar
http://www.uloz.to/xHYSioz/rammstein-videos-1995-2012-disc1-german-1080p-mbluray-x264-copyriot-part3-rar
http://www.uloz.to/xDUCQ88/rammstein-videos-1995-2012-disc1-german-1080p-mbluray-x264-copyriot-part4-rar
http://www.uloz.to/xgB1ES1/rammstein-videos-1995-2012-disc1-german-1080p-mbluray-x264-copyriot-part5-rar

Obrázok

Kód: Vybrať všetko

http://share-rapid.cz/stahuj/4056027/rammstein-videos-1995-2012-disc1-german-1080p-mbluray-x264-copyriot-part1.rar
http://share-rapid.cz/stahuj/4056032/rammstein-videos-1995-2012-disc1-german-1080p-mbluray-x264-copyriot-part5.rar
http://share-rapid.cz/stahuj/4056033/rammstein-videos-1995-2012-disc1-german-1080p-mbluray-x264-copyriot-part2.rar
http://share-rapid.cz/stahuj/4056048/rammstein-videos-1995-2012-disc1-german-1080p-mbluray-x264-copyriot-part4.rar
http://share-rapid.cz/stahuj/4056049/rammstein-videos-1995-2012-disc1-german-1080p-mbluray-x264-copyriot-part3.rar
Všechny příspěvky mnou zde vystavené jsou pouze degustačního charakteru.....ochutnejte a pokud se Vám něco zalíbí, tak neváhejte a podpořte svého oblíbeného interpreta koupí originálního nosiče, nebo zajděte na koncert. Díky že podporujete underground .....
Los Rios
Metalový král
Metalový král
Príspevky: 1428
Dátum registrácie: 31 Okt 2012, 12:32

Rammstein - Videos 1995-2012 (Disk 2)

Príspevokod užívateľa Los Rios » 24 Jan 2013, 18:26

Rammstein - Videos 1995-2012 (Disc 2) [2012, Industrial, BDRip 1080p]

Obrázok

Kontejner - MKV
Zdroj - BDRip 1080p
Video - 1920x1080 / 16:9 / 24.000 fps / ~10.0 Mbps
Аudio - DTS Stereo / 48 kHz / 1510 kbps / 24 bits
Size - 4,37 GB
Time - 0:54:28


Obrázok

Kód: Vybrať všetko

01. Amerika
02. Ohne dich
03. Keine Lust
04. Benzin
05. Rosenrot
06. Mann gegen Mann
07. Pussy
08. Ich tu dir weh
09. Haifisch
10. Mein Land
11. Mein Herz brennt (Piano Version)
12. Mein Herz brennt

Obrázok

Kód: Vybrať všetko

http://download.hellshare.com/rammstein-videos-1995-2012-disc-2-1080p-bluray-dts-x264-copyriot-part1-rar/11189477/
http://download.hellshare.com/rammstein-videos-1995-2012-disc-2-1080p-bluray-dts-x264-copyriot-part3-rar/11189732/
http://download.hellshare.com/rammstein-videos-1995-2012-disc-2-1080p-bluray-dts-x264-copyriot-part2-rar/11189739/
http://download.hellshare.com/rammstein-videos-1995-2012-disc-2-1080p-bluray-dts-x264-copyriot-part5-rar/11189854/
http://download.hellshare.com/rammstein-videos-1995-2012-disc-2-1080p-bluray-dts-x264-copyriot-part4-rar/11189876/

Obrázok

Kód: Vybrať všetko

http://czshare.com/4755288/Rammstein+Videos+1995+-+2012+Disc+2+1080p+BluRay+DTS+x264-COPYRiOT.part3.rar
http://czshare.com/4755360/Rammstein+Videos+1995+-+2012+Disc+2+1080p+BluRay+DTS+x264-COPYRiOT.part5.rar
http://czshare.com/4768550/Rammstein+Videos+1995+-+2012+Disc+2+1080p+BluRay+DTS+x264-COPYRiOT.part1.rar
http://czshare.com/4768576/Rammstein+Videos+1995+-+2012+Disc+2+1080p+BluRay+DTS+x264-COPYRiOT.part2.rar
http://czshare.com/4769952/Rammstein+Videos+1995+-+2012+Disc+2+1080p+BluRay+DTS+x264-COPYRiOT.part4.rar

Obrázok

Kód: Vybrať všetko

http://www.uloz.to/xwsieEb/rammstein-videos-1995-2012-disc-2-1080p-bluray-dts-x264-copyriot-part1-rar
http://www.uloz.to/xgUsQoK/rammstein-videos-1995-2012-disc-2-1080p-bluray-dts-x264-copyriot-part2-rar
http://www.uloz.to/xYtsYph/rammstein-videos-1995-2012-disc-2-1080p-bluray-dts-x264-copyriot-part3-rar
http://www.uloz.to/xzBwzS1/rammstein-videos-1995-2012-disc-2-1080p-bluray-dts-x264-copyriot-part4-rar
http://www.uloz.to/xA9vfWd/rammstein-videos-1995-2012-disc-2-1080p-bluray-dts-x264-copyriot-part5-rar

Obrázok

Kód: Vybrať všetko

http://share-rapid.cz/stahuj/4056041/rammstein-videos-1995-2012-disc-2-1080p-bluray-dts-x264-copyriot-part3.rar
http://share-rapid.cz/stahuj/4056042/rammstein-videos-1995-2012-disc-2-1080p-bluray-dts-x264-copyriot-part4.rar
http://share-rapid.cz/stahuj/4056054/rammstein-videos-1995-2012-disc-2-1080p-bluray-dts-x264-copyriot-part1.rar
http://share-rapid.cz/stahuj/4056055/rammstein-videos-1995-2012-disc-2-1080p-bluray-dts-x264-copyriot-part2.rar
http://share-rapid.cz/stahuj/4056062/rammstein-videos-1995-2012-disc-2-1080p-bluray-dts-x264-copyriot-part5.rar
Všechny příspěvky mnou zde vystavené jsou pouze degustačního charakteru.....ochutnejte a pokud se Vám něco zalíbí, tak neváhejte a podpořte svého oblíbeného interpreta koupí originálního nosiče, nebo zajděte na koncert. Díky že podporujete underground .....
Los Rios
Metalový král
Metalový král
Príspevky: 1428
Dátum registrácie: 31 Okt 2012, 12:32

Re: Rammstein

Príspevokod užívateľa Los Rios » 25 Feb 2013, 13:21

choldik napísal:Rammstein - Rock Am Ring (2010) 720p HDTV


Kód: Vybrať všetko

Info:
Formát                           : Matroska
Velikost souboru                 : 1,86 GiB
Duration/String                  : 31mn 7s
Celkový BitRate                  : 8 576 Kbps
Název filmu                      : Rammstein rock am ring 2010 x264 HDTVRip
Encoded date                     : UTC 2011-03-07 08:41:15
Použitý software                 : mkvmerge v4.4.0 ('Die Wiederkehr') built on Oct 31 2010 21:52:48
Enkódoval                        : libebml v1.0.0 + libmatroska v1.0.0

Video
ID                               : 1
Formát                           : AVC
Formát/                          : Advanced Video Codec
Format_Profile                   : High@L5.1
Format_Settings_CABAC/String     : Ano
Format_Settings_RefFrames/String : 3 frame
CodecID                          : V_MPEG4/ISO/AVC
Duration/String                  : 31mn 7s
Bit rate                         : 8 192 Kbps
BitRate_Maximum/String           : 25,0 Mbps
Šířka                            : 1 280pixely
Výška                            : 720pixely
Poměr stran                      : 16:9
Frame rate                       : 30,000 fps
ColorSpace                       : YUV
ChromaSubsampling                : 4:2:0
BitDepth/String                  : 8 bits
ScanType/String                  : Progressive
Bits/(Pixel*Frame)               : 0.296
StreamSize/String                : 1,74 GiB (94%)

Audio
ID                               : 2
Formát                           : AC-3
Formát/                          : Audio Coding 3
Format_Settings_ModeExtension    : CM (complete main)
CodecID                          : A_AC3
Duration/String                  : 31mn 7s
Bit rate                         : 384 Kbps
Kanál(y)                         : 6 kanály
Channel positions                : Front: L C R, Side: L R, LFE
Sampling rate                    : 48,0 KHz
BitDepth/String                  : 16 bits
StreamSize/String                : 85,5 MiB (4%)

[color=red][b]Tracklist:[/b][/color]

1. Rammlied
2. Ich Tu Dir Weh
3. Sonne
4. Haifisch
5. Ich Will



Kód: Vybrať všetko

http://www.ulozto.cz/8871055/rrar10-720p-part01-rar
http://www.ulozto.cz/8871101/rrar10-720p-part02-rar
http://www.ulozto.cz/8871157/rrar10-720p-part03-rar
http://www.ulozto.cz/8871214/rrar10-720p-part04-rar
http://www.ulozto.cz/8871247/rrar10-720p-part05-rar
http://www.ulozto.cz/8871290/rrar10-720p-part06-rar
http://www.ulozto.cz/8871306/rrar10-720p-part07-rar
http://www.ulozto.cz/8871327/rrar10-720p-part08-rar
http://www.ulozto.cz/8871357/rrar10-720p-part09-rar
http://www.ulozto.cz/8871362/rrar10-720p-part10-rar



Bez hesla.
Všechny příspěvky mnou zde vystavené jsou pouze degustačního charakteru.....ochutnejte a pokud se Vám něco zalíbí, tak neváhejte a podpořte svého oblíbeného interpreta koupí originálního nosiče, nebo zajděte na koncert. Díky že podporujete underground .....
Los Rios
Metalový král
Metalový král
Príspevky: 1428
Dátum registrácie: 31 Okt 2012, 12:32

Re: Rammstein

Príspevokod užívateľa Los Rios » 02 Máj 2013, 14:07

Rammstein & Marilyn Manson - The Beautiful People (live @ Echo 2012) [2012, Industrial Metal, HDTV 720p]



Kód: Vybrať všetko

Complete name                            : C:\MyTorrents\Rammstein & Marilyn Manson - Beautiful People (live @ Echo 2012).mkv
Format                                   : Matroska
Format version                           : Version 2
File size                                : 333 MiB
Duration                                 : 3mn 56s
Overall bit rate mode                    : Variable
Overall bit rate                         : 11.8 Mbps
Encoded date                             : UTC 2012-11-28 13:17:34
Writing application                      : mkvmerge v5.8.0 ('No Sleep / Pillow') built on Sep  2 2012 15:37:04
Writing library                          : libebml v1.2.3 + libmatroska v1.3.0

Video
ID                                       : 1
Format                                   : AVC
Format/Info                              : Advanced Video Codec
Format profile                           : High@L4.0
Format settings, CABAC                   : Yes
Format settings, ReFrames                : 5 frames
Format settings, GOP                     : M=16, N=32
Codec ID                                 : V_MPEG4/ISO/AVC
Duration                                 : 3mn 56s
Bit rate mode                            : Variable
Bit rate                                 : 11.1 Mbps
Maximum bit rate                         : 11.5 Mbps
Width                                    : 1 280 pixels
Height                                   : 720 pixels
Display aspect ratio                     : 16:9
Frame rate mode                          : Constant
Frame rate                               : 50.000 fps
Color space                              : YUV
Chroma subsampling                       : 4:2:0
Bit depth                                : 8 bits
Scan type                                : Progressive
Bits/(Pixel*Frame)                       : 0.242
Stream size                              : 314 MiB (94%)
Default                                  : Yes
Forced                                   : No
Color primaries                          : BT.709
Transfer characteristics                 : BT.709
Matrix coefficients                      : BT.709

Audio
ID                                       : 2
Format                                   : AC-3
Format/Info                              : Audio Coding 3
Mode extension                           : CM (complete main)
Format settings, Endianness              : Big
Codec ID                                 : A_AC3
Duration                                 : 3mn 56s
Bit rate mode                            : Constant
Bit rate                                 : 448 Kbps
Channel(s)                               : 2 channels
Channel positions                        : Front: L R
Sampling rate                            : 48.0 KHz
Bit depth                                : 16 bits
Compression mode                         : Lossy
Delay relative to video                  : 22ms
Stream size                              : 12.6 MiB (4%)
Language                                 : German
Default                                  : Yes
Forced                                   : No


Kód: Vybrať všetko

http://share-rapid.com/stahuj/4262040/rammstein-marilyn-manson-beautiful-people-live-echo-2012.mkv
http://uloz.to/xp3fATTd/rammstein-marilyn-manson-beautiful-people-live-echo-2012-mkv
Všechny příspěvky mnou zde vystavené jsou pouze degustačního charakteru.....ochutnejte a pokud se Vám něco zalíbí, tak neváhejte a podpořte svého oblíbeného interpreta koupí originálního nosiče, nebo zajděte na koncert. Díky že podporujete underground .....

Návrat na "Dead post"

Kto je prítomný

Užívatelia prezerajúci toto fórum: Žiadny pripojení užívatelia