Pretty Maids

videoripy a samostatné klipy v HD kvalitě.... s rozlišením od 720p
Tesarik
Nový človiečik
Nový človiečik
Príspevky: 36
Dátum registrácie: 29 Okt 2012, 22:40

Pretty Maids

Príspevokod užívateľa Tesarik » 12 Aug 2013, 02:12

Pretty Maids - Live Wacken (2013)

Obrázok

Kód: Vybrať všetko

Format                         : MPEG-TS
File size                      : 6.13 GiB
Duration                       : 58mn 19s
Overall bit rate mode          : Variable
Overall bit rate               : 15.0 Mbps

Video
ID                             : 6410 (0x190A)
Menu ID                        : 1 (0x1)
Format                         : AVC
Format/Info                    : Advanced Video Codec
Format profile                 : High@L4.0
Format settings, CABAC         : Yes
Format settings, ReFrames      : 6 frames
Codec ID                       : 27
Duration                       : 58mn 19s
Bit rate                       : 13.2 Mbps
Width                          : 1 280 pixels
Height                         : 720 pixels
Display aspect ratio           : 16:9
Frame rate                     : 50.000 fps
Color space                    : YUV
Chroma subsampling             : 4:2:0
Bit depth                      : 8 bits
Scan type                      : Progressive
Bits/(Pixel*Frame)             : 0.286
Stream size                    : 5.37 GiB (88%)
Color primaries                : BT.709
Transfer characteristics       : BT.709
Matrix coefficients            : BT.709

Audio #1
ID                             : 6420 (0x1914)
Menu ID                        : 1 (0x1)
Format                         : MPEG Audio
Format version                 : Version 1
Format profile                 : Layer 2
Codec ID                       : 3
Duration                       : 58mn 19s
Bit rate mode                  : Constant
Bit rate                       : 256 Kbps
Channel(s)                     : 2 channels
Sampling rate                  : 48.0 KHz
Compression mode               : Lossy
Stream size                    : 107 MiB (2%)
Language                       : German

Audio #2
ID                             : 6421 (0x1915)
Menu ID                        : 1 (0x1)
Format                         : MPEG Audio
Format version                 : Version 1
Format profile                 : Layer 2
Codec ID                       : 3
Duration                       : 58mn 19s
Bit rate mode                  : Constant
Bit rate                       : 192 Kbps
Channel(s)                     : 2 channels
Sampling rate                  : 48.0 KHz
Compression mode               : Lossy
Stream size                    : 80.1 MiB (1%)

Audio #3
ID                             : 6422 (0x1916)
Menu ID                        : 1 (0x1)
Format                         : AC-3
Format/Info                    : Audio Coding 3
Mode extension                 : CM (complete main)
Format settings, Endianness    : Big
Codec ID                       : 6
Duration                       : 58mn 19s
Bit rate mode                  : Constant
Bit rate                       : 448 Kbps
Channel(s)                     : 2 channels
Channel positions              : Front: L R
Sampling rate                  : 48.0 KHz
Bit depth                      : 16 bits
Compression mode               : Lossy
Stream size                    : 187 MiB (3%)
Language                       : German

Audio #4
ID                             : 6423 (0x1917)
Menu ID                        : 1 (0x1)
Format                         : MPEG Audio
Format version                 : Version 1
Format profile                 : Layer 2
Codec ID                       : 3
Duration                       : 58mn 19s
Bit rate mode                  : Constant
Bit rate                       : 192 Kbps
Channel(s)                     : 2 channels
Sampling rate                  : 48.0 KHz
Compression mode               : Lossy
Stream size                    : 80.1 MiB (1%)
Language                       : Multiple languages


Tracklist:

01.Mother Of All Lies
02.I See Ghosts
03.Back To Back
04.Rodeo
05.Needles In The Dark
06.Yellow Rain
07.I.N.V.U.
08.Little Drops Of Heaven
09.Future World
10.Red, Hot And Heavy

Kód: Vybrať všetko

http://download.hellshare.cz/pretty-maids-wacken-2013-part1-rar/14802103
http://download.hellshare.cz/pretty-maids-wacken-2013-part2-rar/14803281
http://download.hellshare.cz/pretty-maids-wacken-2013-part3-rar/14805141
http://download.hellshare.cz/pretty-maids-wacken-2013-part4-rar/14806309
Užívateľov profilový obrázok
ja.boza
Metalový fanatik
Metalový fanatik
Príspevky: 590
Dátum registrácie: 02 Jan 2013, 00:49

Re: Pretty Maids

Príspevokod užívateľa ja.boza » 19 Aug 2013, 19:51

Pretty Maids - Live Wacken (2013)

Obrázok

01.Mother Of All Lies
02.I See Ghosts
03.Back To Back
04.Rodeo
05.Needles In The Dark
06.Yellow Rain
07.I.N.V.U.
08.Little Drops Of Heaven
09.Future World
10.Red, Hot And Heavy

Obrázok

Původní nahrávka

Formát : Matroska
Format_Version : Version 4 / Version 2
Velikost souboru : 5,51 GiB
Duration/String : 58mn 19s
Celkový BitRate : 13,5 Mbps
Encoded date : UTC 2013-08-07 19:50:00
Použitý software : mkvmerge v6.3.0 ('You can't stop me!') built on Jun 28 2013 20:09:41
Enkódoval : libebml v1.3.0 + libmatroska v1.4.0

Video
ID : 1
Formát : AVC
Formát/ : Advanced Video Codec
Format_Profile : High@L4.0
Format_Settings_CABAC/String : Ano
Format_Settings_RefFrames/String : 6 frame
CodecID : V_MPEG4/ISO/AVC
Duration/String : 58mn 19s
Bit rate : 12,8 Mbps
Šířka : 1 280pixely
Výška : 720pixely
Poměr stran : 16:9
Frame rate : 50,000 fps
ColorSpace : YUV
ChromaSubsampling : 4:2:0
BitDepth/String : 8 bits
ScanType/String : Progressive
Bits/(Pixel*Frame) : 0.278
StreamSize/String : 5,22 GiB (95%)
Default : Ano
Forced : Ne
colour_primaries : BT.709
transfer_characteristics : BT.709
matrix_coefficients : BT.709

Audio
ID : 2
Formát : AC-3
Formát/ : Audio Coding 3
Format_Settings_ModeExtension : CM (complete main)
Format_Settings_Endianness : Big
CodecID : A_AC3
Duration/String : 58mn 19s
Bit rate : 448 Kbps
Kanál(y) : 2 kanály
Channel positions : Front: L R
Sampling rate : 48,0 KHz
BitDepth/String : 16 bits
StreamSize/String : 187 MiB (3%)
Jazyk : German
Default : Ano
Forced : Ne

ObrázokObrázokObrázok
Obrázok
link :

Kód: Vybrať všetko

http://www.uloz.to/xLvKzGKs/pretty-maids-live-wacken-2013-mkv


Avi
Formát : AVI
Formát/ : Audio Video Interleave
Format_Profile : OpenDML
Velikost souboru : 5,76 GiB
Duration/String : 58mn 19s
Celkový BitRate : 14,1 Mbps
Použitý software : Lavf53.6.0

Video
ID : 0
Formát : MPEG-4 Visual
Format_Profile : Simple@L3
Format_Settings_BVOP/String : Ne
Format_Settings_QPel/String : Ne
Format_Settings_GMC/String : 0 warppoint
Format_Settings_Matrix/String : Default (H.263)
CodecID : XVID
/ : XviD
Duration/String : 58mn 19s
Bit rate : 13,8 Mbps
Šířka : 1 280pixely
Výška : 720pixely
Poměr stran : 16:9
Frame rate : 25,000 fps
ColorSpace : YUV
ChromaSubsampling : 4:2:0
BitDepth/String : 8 bits
ScanType/String : Progressive
Bits/(Pixel*Frame) : 0.599
StreamSize/String : 5,62 GiB (98%)
Enkódoval : XviD 64

Audio
ID : 1
Formát : AC-3
Formát/ : Audio Coding 3
Format_Settings_ModeExtension : CM (complete main)
Format_Settings_Endianness : Big
CodecID : 2000
Duration/String : 58mn 19s
Bit rate : 320 Kbps
Kanál(y) : 2 kanály
Channel positions : Front: L R
Sampling rate : 48,0 KHz
BitDepth/String : 16 bits
StreamSize/String : 133 MiB (2%)
Interleave_Duration/String : 32 ms (0.80 video frames)

ObrázokObrázokObrázok
Obrázok
link :

Kód: Vybrať všetko

http://www.uloz.to/xSTYxrKw/pretty-maids-live-wacken-2013-avi



heslo k linkům na Uložto : Wacken

....NEREUPLOUDUJTE PROSÍM 1.TÝDEN.NEŽÁDEJTE PO MNE TAKÉ JINÁ ULOŽIŠTĚ,
NEŽ NA KTERÉ TO DÁVÁM SÁM....


Návrat na "HD VIDEO"

Kto je prítomný

Užívatelia prezerajúci toto fórum: Žiadny pripojení užívatelia