Iron Maiden - Flight 666 (2009)

jen plné kopie blu-ray disků
sally09
Nový človiečik
Nový človiečik
Príspevky: 2
Dátum registrácie: 07 Apr 2013, 16:49

Iron Maiden - Flight 666 (2009)

Príspevokod užívateľa sally09 » 10 Apr 2013, 20:28

Obrázok

DISC I.
FLIGHT 666 : THE FILM(112 minutes)

s CZ titulky
Format : Matroska
Format version : Version 2
Duration : 1h 44mn
Overall bit rate mode : Variable
Overall bit rate : 22.8 Mbps
Encoded date : UTC 2009-06-03 12:59:13
Writing application : mkvmerge v2.9.0 ('Moanin'') built on May 23 2009 12:21:04
Writing library : libebml v0.7.7 + libmatroska v0.8.1

Video
ID : 1
Format : AVC
Format/Info : Advanced Video Codec
Format profile : High@L4.1
Format settings, CABAC : Yes
Format settings, ReFrames : 4 frames
Format settings, GOP : M=3, N=24
Muxing mode : Container profile=Unknown@0.0
Codec ID : V_MPEG4/ISO/AVC
Duration : 1h 44mn
Bit rate mode : Variable
Maximum bit rate : 35.0 Mbps
Width : 1 920 pixels
Height : 1 080 pixels
Display aspect ratio : 16:9
Frame rate mode : Constant
Frame rate : 23.976 fps
Standard : NTSC


Audio #1
ID : 2
Format : AC-3
Format/Info : Audio Coding 3
Mode extension : CM (complete main)
Format settings, Endianness : Big
Codec ID : A_AC3
Duration : 1h 44mn
Bit rate mode : Constant
Bit rate : 384 Kbps
Channel(s) : 2 channels
Channel positions : Front: L R
Sampling rate : 48.0 KHz
Bit depth : 16 bits
Compression mode : Lossy
Stream size : 287 MiB (2%)
Title : Dolby Digital Audio 2.0 / 48 kHz / 384 kbps
Language : English
Default : Yes
Forced : No

Audio #2
ID : 3
Format : DTS
Format/Info : Digital Theater Systems
Format profile : MA / Core
Mode : 16
Format settings, Endianness : Big
Codec ID : A_DTS
Duration : 1h 44mn
Bit rate mode : Variable
Bit rate : Unknown / 1 509 Kbps
Channel(s) : 6 channels
Channel positions : Front: L C R, Side: L R, LFE
Sampling rate : 48.0 KHz
Bit depth : 16 bits
Compression mode : Lossless / Lossy
Title : DTS-HD Master Audio 5.1 / 48 kHz / 2866 kbps / 16-bit (DTS Core: 5.1 / 48 kHz / 1509 kbps / 16-bit)
Language : English
Default : No
Forced : No

Audio #3
ID : 4
Format : PCM
Codec ID : A_PCM/INT/LIT
Duration : 1h 44mn
Bit rate mode : Constant
Channel(s) : 6 channels
Sampling rate : 48.0 KHz
Bit depth : 16 bits
Title : LPCM Audio 5.1 / 48 kHz / 4608 kbps / 16-bit
Language : English
Default : No
Forced : No

Kód: Vybrať všetko

http://czshare.com/5160477/ouf3/IMF6.part01.rar
http://czshare.com/5160493/s1zO/IMF6.part02.rar
http://czshare.com/5160509/5kXb/IMF6.part03.rar
http://czshare.com/5160721/gd4w/IMF6.part04.rar
http://czshare.com/5160731/o_T6/IMF6.part05.rar
http://czshare.com/5160740/OEhI/IMF6.part06.rar
http://czshare.com/5160741/KG9y/IMF6.part07.rar
http://czshare.com/5160757/QvA_/IMF6.part08.rar
http://czshare.com/5160771/v778/IMF6.part09.rar
http://czshare.com/5160784/Fts_/IMF6.part10.rar
http://czshare.com/5160792/807N/IMF6.part11.rar
http://czshare.com/5160801/erIT/IMF6.part12.rar
http://czshare.com/5160814/_6wQ/IMF6.part13.rar
http://czshare.com/5160820/5Qs_/IMF6.part14.rar
http://czshare.com/5160823/R4mJ/IMF6.part15.rar
http://czshare.com/5160655/1_ru/IMF6.part16.rar



DISC II.
FLIGHT 666 : The Concert (104 minutes)


1. ACES HIGH (Bandra Kurla Complex/Mumbai, India February 1, 2008)
2. 2 MINUTES TO MIDNIGHT (Rod Laver Arena/Melbourne, Australia February 7, 2008)
3. REVELATIONS (Acer Arena/Sydney, Australia February 9, 2008)
4. THE TROOPER (Makuhari Messe/Tokyo, Japan February 16, 2008)
5. WASTED YEARS (Arena Monterrey/Monterrey, Mexico February 22, 2008)
6. THE NUMBER OF THE BEAST (The Forum/Los Angeles, USA February 19, 2008)
7. CAN I PLAY WITH MADNESS (Foro Sol/Mexico City, Mexico February 24, 2008)
8. RIME OF THE ANCIENT MARINER (Izod Center/New Jersey, USA March 14, 2008)
9. POWERSLAVE (Saprissa Stadium/San Jose, Costa Rica February 26, 2008)
10. HEAVEN CAN WAIT (Palmeiras Stadium/Sao Paulo, Brazil March 2, 2008)
11. RUN TO THE HILLS (Simon Bolivar Park/Bogota, Colombia February 28, 2008)
12. FEAR OF THE DARK (Ferrocarril Oeste Stadium/Buenos Aires, Argentina March 7, 2008)
13. IRON MAIDEN (Pista Atletica/Santiago, Chile March 9, 2008)
14. MOONCHILD (Coliseo de Puerto Rico/San Juan, Puerto Rico March 12, 2008)
15. THE CLAIRVOYANT (Pedreira Paulo Leminski/Curitiba, Brazil March 4, 2008)
16. HALLOWED BE THY NAME (Air Canada Centre/Toronto, Canada March 16, 2008)

Format : Matroska
Format version : Version 2
File size : 21.5 GiB
Duration : 1h 52mn
Overall bit rate mode : Variable
Overall bit rate : 27.4 Mbps
Encoded date : UTC 2009-06-03 13:12:09
Writing application : mkvmerge v2.9.0 ('Moanin'') built on May 23 2009 12:21:04
Writing library : libebml v0.7.7 + libmatroska v0.8.1

Video
ID : 1
Format : AVC
Format/Info : Advanced Video Codec
Format profile : High@L4.1
Format settings, CABAC : Yes
Format settings, ReFrames : 4 frames
Format settings, GOP : M=3, N=24
Muxing mode : Container profile=Unknown@0.0
Codec ID : V_MPEG4/ISO/AVC
Duration : 1h 52mn
Bit rate mode : Variable
Maximum bit rate : 35.0 Mbps
Width : 1 920 pixels
Height : 1 080 pixels
Display aspect ratio : 16:9
Frame rate mode : Constant
Frame rate : 23.976 fps
Standard : NTSC

Audio #1
ID : 2
Format : AC-3
Format/Info : Audio Coding 3
Mode extension : CM (complete main)
Format settings, Endianness : Big
Codec ID : A_AC3
Duration : 1h 52mn
Bit rate mode : Constant
Bit rate : 384 Kbps
Channel(s) : 2 channels
Channel positions : Front: L R
Sampling rate : 48.0 KHz
Bit depth : 16 bits
Compression mode : Lossy
Stream size : 309 MiB (1%)
Title : Dolby Digital Audio 2.0 / 48 kHz / 384 kbps
Language : English
Default : Yes
Forced : No

Audio #2
ID : 3
Format : DTS
Format/Info : Digital Theater Systems
Format profile : MA / Core
Mode : 16
Format settings, Endianness : Big
Codec ID : A_DTS
Duration : 1h 52mn
Bit rate mode : Variable
Bit rate : Unknown / 1 509 Kbps
Channel(s) : 6 channels
Channel positions : Front: L C R, Side: L R, LFE
Sampling rate : 48.0 KHz
Bit depth : 16 bits
Compression mode : Lossless / Lossy
Title : DTS-HD Master Audio 5.1 / 48 kHz / 2444 kbps / 16-bit (DTS Core: 5.1 / 48 kHz / 1509 kbps / 16-bit)
Language : English
Default : No
Forced : No

Audio #3
ID : 4
Format : PCM
Codec ID : A_PCM/INT/LIT
Duration : 1h 52mn
Bit rate mode : Constant
Channel(s) : 6 channels
Sampling rate : 48.0 KHz
Bit depth : 16 bits
Title : LPCM Audio 5.1 / 48 kHz / 4608 kbps / 16-bit
Language : English
Default : No
Forced : No

Kód: Vybrať všetko

http://czshare.com/5161067/q4x_/IMT.part01.rar
http://czshare.com/5161052/WhD5/IMT.part02.rar
http://czshare.com/5161054/6UPc/IMT.part03.rar
http://czshare.com/5161080/GrRJ/IMT.part04.rar
http://czshare.com/5161082/e82X/IMT.part05.rar
http://czshare.com/5161089/0jF2/IMT.part06.rar
http://czshare.com/5161105/sD6y/IMT.part07.rar
http://czshare.com/5161111/IJON/IMT.part08.rar
http://czshare.com/5161115/29R5/IMT.part09.rar
http://czshare.com/5161128/y92C/IMT.part10.rar
http://czshare.com/5161135/cis5/IMT.part11.rar
http://czshare.com/5161139/s390/IMT.part12.rar
http://czshare.com/5161159/YPHP/IMT.part13.rar
http://czshare.com/5161175/0z7t/IMT.part14.rar
http://czshare.com/5161179/c0Q9/IMT.part15.rar
http://czshare.com/5161185/RWt3/IMT.part16.rar
http://czshare.com/5161197/yg_2/IMT.part17.rar
http://czshare.com/5161206/GNU2/IMT.part18.rar
http://czshare.com/5161229/0Bx6/IMT.part19.rar
http://czshare.com/5161233/_tNS/IMT.part20.rar
http://czshare.com/5161235/3p7p/IMT.part21.rar
DeathMaster68
Metalový fanúšik
Metalový fanúšik
Príspevky: 135
Dátum registrácie: 21 Mar 2013, 19:42

Re: IRON MAIDEN- FLIGHT 666

Príspevokod užívateľa DeathMaster68 » 11 Apr 2013, 21:39

Prosím prosím DVD1 by jako DVD9 nebylo ?
Já ho sice mám, ale bohužel bez CZ titulků :(
sally09
Nový človiečik
Nový človiečik
Príspevky: 2
Dátum registrácie: 07 Apr 2013, 16:49

Re: IRON MAIDEN- FLIGHT 666

Príspevokod užívateľa sally09 » 17 Apr 2013, 21:27

DeathMaster68 napísal:Prosím prosím DVD1 by jako DVD9 nebylo ?
Já ho sice mám, ale bohužel bez CZ titulků :(


Ahoj!
Já to na DVD nemám a v převodu videí se moc nevyznám, nikdy jsem nedělal.

Návrat na "FULL BLURAY"

Kto je prítomný

Užívatelia prezerajúci toto fórum: Žiadny pripojení užívatelia