Metallica - Francais Pour Une Nuit (2009)

jen plné kopie blu-ray disků
lepin
Nový človiečik
Nový človiečik
Príspevky: 73
Dátum registrácie: 31 Dec 2012, 17:33
Bydlisko: WAREZ

Metallica - Francais Pour Une Nuit (2009)

Príspevokod užívateľa lepin » 01 Jan 2013, 07:01

Metallica - Live at Rock am Ring (2012)

Obrázok
Thrash/Speed Metal / 2h:10m:03s

Tracklist:
01. Hit the Lights
02. Master of Puppets
03. Ride the Lightning
04. For Whom the Bell Tolls
05. Hell and Back
06. The Struggle Within
07. My Friend of Misery
08. The God That Failed
09. Of Wolf & Man
10. Nothing Else Matters
11. Through the Never
12. Don't Tread On Me
13. Wherever I May Roam
14. The Unforgiven
15. Holier Than Thou
16. Sad But True
17. Enter Sandman
18. Blackened
19. One
20. Seek & Destroy



Info:

General
Complete name : Metallica - Rock am Ring 2012.mkv
Format : Matroska
File size : 7.05 GiB
Duration : 2h 10mn
Overall bit rate : 7 762 Kbps
Encoded date : UTC 2012-06-19 17:20:25
Writing application : mkvmerge v5.5.0 ('Healer') built on Apr 6 2012 21:43:24
Writing library : libebml v1.2.3 + libmatroska v1.3.0
Video
ID : 2
Format : AVC
Format/Info : Advanced Video Codec
Format profile : Baseline@L3.2
Format settings, CABAC : No
Format settings, ReFrames : 1 frame
Muxing mode : Container profile=Unknown@3.2
Codec ID : V_MPEG4/ISO/AVC
Duration : 2h 10mn
Bit rate : 7 160 Kbps
Width : 1 280 pixels
Height : 720 pixels
Display aspect ratio : 16/9
Frame rate mode : Variable
Frame rate : 50.000 fps
Resolution : 24 bits
Colorimetry : 4:2:0
Scan type : Progressive
Bits/(Pixel*Frame) : 0.155
Stream size : 6.50 GiB (92%)
Audio
ID : 1
Format : AC-3
Format/Info : Audio Coding 3
Codec ID : A_AC3
Duration : 2h 10mn
Bit rate mode : Constant
Bit rate : 448 Kbps
Channel(s) : 6 channels
Channel positions : Front: L C R, Surround: L R, LFE
Sampling rate : 48.0 KHz
Stream size : 417 MiB (6%)



ObrázokSpojit Total Commanderem
Obrázok
Obrázok

czshare

Kód: Vybrať všetko

http://czshare.com/4232230/M_Roc_kam_Ri_ng_2012.001
http://czshare.com/4229546/M_Roc_kam_Ri_ng_2012.002
http://czshare.com/4229562/M_Roc_kam_Ri_ng_2012.003
http://czshare.com/4229605/M_Roc_kam_Ri_ng_2012.004
http://czshare.com/4229634/M_Roc_kam_Ri_ng_2012.005
http://czshare.com/4231606/M_Roc_kam_Ri_ng_2012.006
http://czshare.com/4231676/M_Roc_kam_Ri_ng_2012.007
http://czshare.com/4231744/M_Roc_kam_Ri_ng_2012.008
http://czshare.com/4231761/M_Roc_kam_Ri_ng_2012.crc

fastshare

Kód: Vybrať všetko

http://www.fastshare.cz/1836407/m-roc-kam-ri-ng-2012.001
http://www.fastshare.cz/1836413/m-roc-kam-ri-ng-2012.002
http://www.fastshare.cz/1836414/m-roc-kam-ri-ng-2012.003
http://www.fastshare.cz/1836420/m-roc-kam-ri-ng-2012.004
http://www.fastshare.cz/1836422/m-roc-kam-ri-ng-2012.005
http://www.fastshare.cz/1836425/m-roc-kam-ri-ng-2012.006
http://www.fastshare.cz/1836428/m-roc-kam-ri-ng-2012.007
http://www.fastshare.cz/1836436/m-roc-kam-ri-ng-2012.008
http://www.fastshare.cz/1836437/m-roc-kam-ri-ng-2012.crc

hellshare

Kód: Vybrať všetko

http://download.hellshare.com/m-roc-kam-ri-ng-2012-001/10314818/
http://download.hellshare.com/m-roc-kam-ri-ng-2012-002/10314859/
http://download.hellshare.com/m-roc-kam-ri-ng-2012-003/10314891/
http://download.hellshare.com/m-roc-kam-ri-ng-2012-004/10314924/
http://download.hellshare.com/m-roc-kam-ri-ng-2012-005/10314962/
http://download.hellshare.com/m-roc-kam-ri-ng-2012-006/10314996/
http://download.hellshare.com/m-roc-kam-ri-ng-2012-007/10315037/
http://download.hellshare.com/m-roc-kam-ri-ng-2012-008/10315044/
http://download.hellshare.com/m-roc-kam-ri-ng-2012-crc/10315045/

share-rapid

Kód: Vybrať všetko

http://share-rapid.com/stahuj/m41k9m1n
http://share-rapid.com/stahuj/ztx8356s
http://share-rapid.com/stahuj/o58cf432
http://share-rapid.com/stahuj/b79ird8q
http://share-rapid.com/stahuj/aorld06w
http://share-rapid.com/stahuj/i3nt47ch
http://share-rapid.com/stahuj/w5837w0d
http://share-rapid.com/stahuj/c147nobq
http://share-rapid.com/stahuj/f71f366u


Roční paušál na Share-Rapid za 250 Kč

Linky jsou kombinovatelné
Pokud se Ti tento upload líbí,kup si ORIGINÁLNÍ VERZI
PODĚKOVÁNÍ VÁM NEUBLÍŽÍ A MĚ MOTIVUJE
Jak předejít infarktu?Poslat do řiti každého dřív,než Tě nasere,,,
enjoy_by_lepin
Obrázok
Obrázok

Návrat na "FULL BLURAY"

Kto je prítomný

Užívatelia prezerajúci toto fórum: Žiadny pripojení užívatelia