Sonata Arctica

DVD Ripy,TV Ripy, VHS Ripy, Cam Ripy, atd..
Tesarik
Nový človiečik
Nový človiečik
Príspevky: 36
Dátum registrácie: 29 Okt 2012, 22:40

Sonata Arctica

Príspevokod užívateľa Tesarik » 18 Aug 2013, 12:26

Sonata Arctica - Live Wacken 2013

Obrázok

Kód: Vybrať všetko

Format                         : AVI
File size                      : 665 MiB
Duration                       : 54mn 34s
Overall bit rate               : 1 704 Kbps

Video
ID                             : 0
Format                         : AVC
Format/Info                    : Advanced Video Codec
Format profile                 : High@L3.0
Format settings, CABAC         : Yes
Format settings, ReFrames      : 1 frame
Codec ID                       : H264
Duration                       : 54mn 34s
Bit rate                       : 1 438 Kbps
Width                          : 856 pixels
Height                         : 480 pixels
Display aspect ratio           : 16:9
Frame rate mode                : Variable
Frame rate                     : 25.000 fps
Color space                    : YUV
Chroma subsampling             : 4:2:0
Bit depth                      : 8 bits
Scan type                      : Progressive
Bits/(Pixel*Frame)             : 0.140
Stream size                    : 560 MiB (84%)
Writing library                : x264 core 129

Audio
ID                             : 1
Format                         : MPEG Audio
Format version                 : Version 1
Format profile                 : Layer 3
Mode                           : Joint stereo
Codec ID                       : 55
Codec ID/Hint                  : MP3
Duration                       : 54mn 34s
Bit rate mode                  : Constant
Bit rate                       : 256 Kbps
Channel(s)                     : 2 channels
Sampling rate                  : 44.1 KHz
Compression mode               : Lossy
Stream size                    : 99.9 MiB (15%)
Alignment                      : Aligned on interleaves
Interleave, duration           : 26 ms (0.65 video frame)
Writing library                : LAME3.99.5



Tracklist:

1. Only The Broken Hearts
2.Black Sheep 07:40 Shitload Of Money
3. Losing My Insanity
4. The Last Amazing Greys
5. I Have A Right
6. Replica
7. Fullmoon
8. Cinderblox
9. Don't Say A Word

Kód: Vybrať všetko

http://download.hellshare.cz/sonata-artica-live-wacken-2013-avi/14909872


Kód: Vybrať všetko

http://uloz.to/x1DjLSt7/sonata-artica-live-wacken-2013-avi


Kód: Vybrať všetko

http://czshare.com/5509973/Sonata+Artica+-++Live+Wacken+2013.avi
frantaz
Nový človiečik
Nový človiečik
Príspevky: 1
Dátum registrácie: 18 Feb 2013, 13:12

Re: Sonata Arctica

Príspevokod užívateľa frantaz » 29 Aug 2013, 23:22

Zdravím nebylo by tam prosím DVD. Děkuji

Návrat na "Video ripy"

Kto je prítomný

Užívatelia prezerajúci toto fórum: Žiadny pripojení užívatelia