Kataklysm

DVD Ripy,TV Ripy, VHS Ripy, Cam Ripy, atd..
pagáč
Metalový fanúšik
Metalový fanúšik
Príspevky: 238
Dátum registrácie: 03 Apr 2013, 12:55
Kontaktovať užívateľa:

Kataklysm

Príspevokod užívateľa pagáč » 02 Máj 2013, 11:23

Kataklysm - Push The Venom (2010)

Info:

Kód: Vybrať všetko

Artist: Kataklysm
Video: Push The Venom
Year: 2010
Genre: Death Metal
Country: Canada (Montreal, Quebec)


Kvalita:

Kód: Vybrať všetko

Format : AVI
      Format/Info : Audio Video Interleave
      File size : 117 MiB
      Duration : 3mn 30s
      Overall bit rate : 4 688 Kbps
   Video #0
      ID : 0
      Format : MPEG-4 Visual
      Format profile : AdvancedSimple@L5
      Format settings, BVOP : No
      Format settings, QPel : No
      Format settings, GMC : No warppoints
      Format settings, Matrix : Default (MPEG)
      Codec ID : XVID
      Codec ID/Hint : XviD
      Duration : 3mn 30s
      Bit rate : 4 486 Kbps
      Width : 1 280 pixels
      Height : 720 pixels
      Display aspect ratio : 16:9
      Frame rate : 25.000 fps
      Resolution : 24 bits
      Colorimetry : 4:2:0
      Scan type : Progressive
      Bits/(Pixel*Frame) : 0.195
      Stream size : 112 MiB (96%)
      Writing library : XviD 1.1.2 (UTC 2006-11-01)
   Audio #1
      ID : 1
      Format : MPEG Audio
      Format version : Version 1
      Format profile : Layer 3
      Codec ID : 55
      Codec ID/Hint : MP3
      Duration : 3mn 29s
      Bit rate mode : Constant
      Bit rate : 192 Kbps
      Channel(s) : 2 channels
      Sampling rate : 44.1 KHz
      Resolution : 16 bits
      Stream size : 4.81 MiB (4%)
      Alignment : Split accross interleaves
      Interleave, duration : 41 ms (1.02 video frame)
      Writing library : LAMELAME_MAJOR_VERSI
Format: AVI (XviD 1.2.1)
Size: 133.14 MB (RAR)
FPS: 30


Kód: Vybrať všetko

http://uloz.to/5583904/kataklysm-push-the-venom-offocial-video.avi

Návrat na "Video ripy"

Kto je prítomný

Užívatelia prezerajúci toto fórum: Žiadny pripojení užívatelia