Vomitory

DVD Ripy,TV Ripy, VHS Ripy, Cam Ripy, atd..
pagáč
Metalový fanúšik
Metalový fanúšik
Príspevky: 237
Dátum registrácie: 03 Apr 2013, 12:55
Kontaktovať užívateľa:

Vomitory

Príspevokod užívateľa pagáč » 02 Máj 2013, 11:19

gregorio napísal:Vomitory - Live in Strasbourg 8.4.2004

1. Blessed and Forsaken (04:23)
2. Primal Massacre (03:37)
3. Forty Seconds Bloodbath (04:14)
4. Autopsy Extravaganza (03:28)
5. The Corpsegrinder Experience (04:20)
6. Chaos Fury (04:11)


mediainfo
Format : AVI
Format/Info : Audio Video Interleave
File size : 300 MiB
Duration : 24mn 16s
Overall bit rate mode : Variable
Overall bit rate : 1 727 Kbps
Writing application : VirtualDubMod 1.5.4.1 (build 2178/release)
Writing library : VirtualDubMod build 2178/release

Video
ID : 0
Format : MPEG-4 Visual
Format profile : Advanced Simple@L5
Format settings, BVOP : 1
Format settings, QPel : No
Format settings, GMC : No warppoints
Format settings, Matrix : Custom
Codec ID : XVID
Codec ID/Hint : XviD
Duration : 24mn 16s
Bit rate : 1 518 Kbps
Width : 720 pixels
Height : 544 pixels
Display aspect ratio : 4:3
Frame rate : 25.000 fps
Color space : YUV
Chroma subsampling : 4:2:0
Bit depth : 8 bits
Scan type : Progressive
Compression mode : Lossy
Bits/(Pixel*Frame) : 0.155
Stream size : 264 MiB (88%)
Writing library : XviD 64

Audio
ID : 1
Format : MPEG Audio
Format version : Version 1
Format profile : Layer 3
Mode : Joint stereo
Mode extension : MS Stereo
Codec ID : 55
Codec ID/Hint : MP3
Duration : 24mn 16s
Bit rate mode : Variable
Bit rate : 197 Kbps
Nominal bit rate : 208 Kbps
Channel(s) : 2 channels
Sampling rate : 48.0 KHz

Obrázok

Kód: Vybrať všetko

http://uloz.to/x9mXAq1/vomitory-live-in-strasbourg-8-4-2004-avi
pagáč
Metalový fanúšik
Metalový fanúšik
Príspevky: 237
Dátum registrácie: 03 Apr 2013, 12:55
Kontaktovať užívateľa:

Re: Vomitory

Príspevokod užívateľa pagáč » 02 Máj 2013, 11:20

gregorio napísal:Vomitory - Live at Summer Breeze Festival 19.8.2004

1. Primal Massacre (03:49)
2. Blessed and Forsaken (04:10)
3. Madness Prevails (04:07)
4. Stray Bullet Kill (05:00)
5. Blood Rapture (05:40)
6. Revelation Nausea (03:37)

mediainfo
Format : AVI
Format/Info : Audio Video Interleave
File size : 320 MiB
Duration : 26mn 25s
Overall bit rate mode : Variable
Overall bit rate : 1 693 Kbps
Writing application : VirtualDubMod 1.5.4.1 (build 2178/release)
Writing library : VirtualDubMod build 2178/release

Video
ID : 0
Format : MPEG-4 Visual
Format profile : Advanced Simple@L5
Format settings, BVOP : 1
Format settings, QPel : No
Format settings, GMC : No warppoints
Format settings, Matrix : Custom
Codec ID : XVID
Codec ID/Hint : XviD
Duration : 26mn 25s
Bit rate : 1 483 Kbps
Width : 720 pixels
Height : 544 pixels
Display aspect ratio : 4:3
Frame rate : 25.000 fps
Color space : YUV
Chroma subsampling : 4:2:0
Bit depth : 8 bits
Scan type : Progressive
Compression mode : Lossy
Bits/(Pixel*Frame) : 0.151
Stream size : 280 MiB (88%)
Writing library : XviD 64

Audio
ID : 1
Format : MPEG Audio
Format version : Version 1
Format profile : Layer 3
Mode : Joint stereo
Mode extension : MS Stereo
Codec ID : 55
Codec ID/Hint : MP3
Duration : 26mn 25s
Bit rate mode : Variable
Bit rate : 197 Kbps
Nominal bit rate : 208 Kbps
Channel(s) : 2 channels
Sampling rate : 48.0 KHz

Obrázok

Kód: Vybrať všetko

http://uloz.to/xKmFyuW/vomitory-live-at-summer-breeze-festival-19-8-2004-avi
pagáč
Metalový fanúšik
Metalový fanúšik
Príspevky: 237
Dátum registrácie: 03 Apr 2013, 12:55
Kontaktovať užívateľa:

Re: Vomitory

Príspevokod užívateľa pagáč » 02 Máj 2013, 11:20

gregorio napísal:Vomitory - Dead & Drunk - LIVE! (2011)

Obrázok

01. Intro
02. The Carnage Rages On
03. Revelation Nausea
04. Serpents
05. Terrorize Brutalize Sodomize
06. Rage of Honour
07. Possessed
08. Nervegasclouds
09. Raped in Their Own Blood
10. Redemption
11. The Voyage

mediainfo
Format : AVI
Format/Info : Audio Video Interleave
File size : 621 MiB
Duration : 44mn 54s
Overall bit rate mode : Variable
Overall bit rate : 1 934 Kbps
Writing application : VirtualDubMod 1.5.4.1 (build 2178/release)
Writing library : VirtualDubMod build 2178/release

Video
ID : 0
Format : MPEG-4 Visual
Format profile : Advanced Simple@L5
Format settings, BVOP : 1
Format settings, QPel : No
Format settings, GMC : No warppoints
Format settings, Matrix : Custom
Codec ID : XVID
Codec ID/Hint : XviD
Duration : 44mn 54s
Bit rate : 1 672 Kbps
Width : 720 pixels
Height : 544 pixels
Display aspect ratio : 4:3
Frame rate : 25.000 fps
Color space : YUV
Chroma subsampling : 4:2:0
Bit depth : 8 bits
Scan type : Progressive
Compression mode : Lossy
Bits/(Pixel*Frame) : 0.171
Stream size : 537 MiB (86%)
Writing library : XviD 64

Audio
ID : 1
Format : MPEG Audio
Format version : Version 1
Format profile : Layer 3
Mode : Joint stereo
Mode extension : MS Stereo
Codec ID : 55
Codec ID/Hint : MP3
Duration : 44mn 54s
Bit rate mode : Variable
Bit rate : 249 Kbps
Channel(s) : 2 channels
Sampling rate : 48.0 KHz

Obrázok

Kód: Vybrať všetko

http://uloz.to/xzxkiZA/vomitory-dead-drunk-live-2011-avi

Návrat na "Video ripy"

Kto je prítomný

Užívatelia prezerajúci toto fórum: Žiadny pripojení užívatelia