Temnozor

DVD Ripy,TV Ripy, VHS Ripy, Cam Ripy, atd..
pagáč
Metalový fanúšik
Metalový fanúšik
Príspevky: 243
Dátum registrácie: 03 Apr 2013, 12:55
Kontaktovať užívateľa:

Temnozor

Príspevokod užívateľa pagáč » 28 Apr 2013, 15:07

hagl napísal:Temnozor' - Twilights at the winter funeral (2010)
Obrázok

Kód: Vybrať všetko

http://www.metal-archives.com/bands/Темнозорь/4394

Obrázok

01. Eyes of death (03:13)
02. Folkstorm of the azure nights (05:49)
03. Bus' ravens (05:16)
04. As the Night Slowly Fades (05:11)
05. Did-doob-snop (05:28)
06. Werewolf (05:12)
07. Where the lazure skies tear the hearts apart (06:48)
08. Maslenitsa (01:50)
09. Watch the falcons fly (04:38)
10. Sunwheel of solstice (05:54)
11. Ravenscream (05:14)
12. Silent be, the field winds (05:44)

Kód: Vybrať všetko

  General
    Format : AVI
    Format/Info : Audio Video Interleave
    File size : 763 MiB
    Duration : 1h 0mn
    Overall bit rate : 1 768 Kbps
    Writing application :  Encoder 1.0pre8-3.4.2

  Video
    Format : MPEG-4 Visual
    Format profile : Advanced Simple@L5
    Format settings, BVOP : 2
    Format settings, QPel : No
    Format settings, GMC : No warppoints
    Format settings, Matrix : Default (H.263)
    Codec ID : XVID
    Codec ID/Hint : XviD
    Duration : 1h 0mn
    Bit rate : 1 434 Kbps
    Width : 720 pixels
    Height : 480 pixels
    Display aspect ratio : 4:3
    Original display aspect ratio : 3:2
    Frame rate : 30.000 fps
    Standard : NTSC
    Color space : YUV
    Chroma subsampling : 4:2:0
    Bit depth : 8 bits
    Scan type : Progressive
    Compression mode : Lossy
    Bits/(Pixel*Frame) : 0.138
    Stream size : 619 MiB (81%)
    Writing library : XviD 1.1.0 (UTC 2005-11-22)

  Audio
    Format : MPEG Audio
    Format version : Version 1
    Format profile : Layer 3
    Codec ID : 55
    Codec ID/Hint : MP3
    Duration : 1h 0mn
    Bit rate mode : Constant
    Bit rate : 320 Kbps
    Channel(s) : 2 channels
    Sampling rate : 48.0 KHz
    Compression mode : Lossy
    Delay relative to video : 33ms
    Stream size : 138 MiB (18%)
    Alignment : Aligned on interleaves
    Interleave, duration : 24 ms (0.72 video frame)
    Interleave, preload duration : 504 ms
    Writing library : LAME3.97


Kód: Vybrať všetko

http://www.uloz.to/xPRWgCU8/twilights-at-the-winter-funeral-avi

Návrat na "Video ripy"

Kto je prítomný

Užívatelia prezerajúci toto fórum: Žiadny pripojení užívatelia