Kroda

DVD Ripy,TV Ripy, VHS Ripy, Cam Ripy, atd..
pagáč
Metalový fanúšik
Metalový fanúšik
Príspevky: 237
Dátum registrácie: 03 Apr 2013, 12:55
Kontaktovať užívateľa:

Kroda

Príspevokod užívateľa pagáč » 28 Apr 2013, 15:06

hagl napísal:Kroda - Fünf Jahre Kulturkampf [Live in Lemberg] (2009)
Obrázok

Kód: Vybrať všetko

http://www.metal-archives.com/bands/Kroda/35759

Obrázok

01. Kroda (intro)
02. From Behind the Horizon
03. How Steel Was Singing Through the Flames of Fire
04. Wind from the Mountains
05. By a Hammer of Spirit and Identity of Blood
06. Revenge Flaming Might of Blazing Steel
07. Where Mountains are Embraced by Shadows
08. Cry to Me, River
09. Der Scharlachrote Tod
10. Poppyflowers are Blossoming (Chapter II)
11. Oy na Hori
12. Der Scharlachrote Tod (encore)

Kód: Vybrať všetko

 
  General
    Format : AVI
    Format/Info : Audio Video Interleave
    File size : 689 MiB
    Duration : 54mn 31s
    Overall bit rate : 1 767 Kbps
    Writing application : VirtualDubMod 1.5.4.1 (build 2178/release)
    Writing library : VirtualDubMod build 2178/release

  Video
    Format : MPEG-4 Visual
    Format settings, BVOP : 1
    Format settings, QPel : No
    Format settings, GMC : No warppoints
    Format settings, Matrix : Custom
    Codec ID : XVID
    Codec ID/Hint : XviD
    Duration : 54mn 31s
    Bit rate : 1 536 Kbps
    Width : 720 pixels
    Height : 544 pixels
    Display aspect ratio : 4:3
    Frame rate : 25.000 fps
    Color space : YUV
    Chroma subsampling : 4:2:0
    Bit depth : 8 bits
    Scan type : Progressive
    Compression mode : Lossy
    Bits/(Pixel*Frame) : 0.157
    Stream size : 599 MiB (87%)
    Writing library : XviD 1.2.1 (UTC 2008-12-04)

  Audio
    Format : MPEG Audio
    Format version : Version 1
    Format profile : Layer 3
    Mode : Joint stereo
    Mode extension : MS Stereo
    Codec ID : 55
    Codec ID/Hint : MP3
    Duration : 54mn 31s
    Bit rate mode : Constant
    Bit rate : 224 Kbps
    Channel(s) : 2 channels
    Sampling rate : 48.0 KHz
    Compression mode : Lossy
    Stream size : 87.4 MiB (13%)
    Alignment : Aligned on interleaves
    Interleave, duration : 80 ms (2.00 video frames)
    Interleave, preload duration : 504 ms
    Writing library : LAME3.98r


Kód: Vybrať všetko

http://www.uloz.to/xoLpY56z/kroda-live-in-lemberg-avi

Návrat na "Video ripy"

Kto je prítomný

Užívatelia prezerajúci toto fórum: Žiadny pripojení užívatelia