Nokturnal Mortum

DVD Ripy,TV Ripy, VHS Ripy, Cam Ripy, atd..
pagáč
Metalový fanúšik
Metalový fanúšik
Príspevky: 243
Dátum registrácie: 03 Apr 2013, 12:55
Kontaktovať užívateľa:

Nokturnal Mortum

Príspevokod užívateľa pagáč » 28 Apr 2013, 15:06

hagl napísal:Nokturnal Mortum - Kolovorot (2012)
Obrázok

Kód: Vybrať všetko

http://www.metal-archives.com/bands/Nokturnal_Mortum/528

Obrázok
Obrázok
Obrázok
Obrázok


01. Intro
02. The voice of steel
03. Valkyria
04. Ukraine
05. White tower
06. In the flames of wooden churches
07. Celestial silver of Perun
08. Black moon overture
09. Weltanschauung
10. The new era of sword
11. Hailed be the Heroes
12. Black raven
13. My dream islands
14. Kolyada
15. Sky of saddened nights / Outro

Kód: Vybrať všetko

 
  General
    Format : MPEG-4
    Format profile : Nero Digital AVC Cinema Profile
    Codec ID : ndxc
    File size : 1.89 GiB
    Duration : 1h 54mn
    Overall bit rate mode : Variable
    Overall bit rate : 2 362 Kbps

  Video
    Format : AVC
    Format/Info : Advanced Video Codec
    Format settings, CABAC : Yes
    Format settings, ReFrames : 2 frames
    Codec ID : avc1
    Codec ID/Info : Advanced Video Coding
    Duration : 1h 54mn
    Bit rate mode : Variable
    Bit rate : 2 238 Kbps
    Maximum bit rate : 11.8 Mbps
    Width : 720 pixels
    Height : 400 pixels
    Display aspect ratio : 16:9
    Frame rate mode : Constant
    Frame rate : 25.000 fps
    Standard : PAL
    Color space : YUV
    Chroma subsampling : 4:2:0
    Bit depth : 8 bits
    Scan type : Progressive
    Bits/(Pixel*Frame) : 0.311
    Stream size : 1.80 GiB (95%)
    Writing library : eavc 1.3.3.3

  Audio
    Format : AAC
    Format/Info : Advanced Audio Codec
    Format profile : HE-AAC / LC
    Codec ID : 40
    Duration : 1h 54mn
    Bit rate mode : Variable
    Bit rate : 118 Kbps
    Maximum bit rate : 138 Kbps
    Channel(s) : 2 channels
    Channel positions : Front: L R
    Sampling rate : 44.1 KHz / 22.05 KHz
    Compression mode : Lossy
    Stream size : 97.3 MiB (5%)


Kód: Vybrať všetko

http://www.uloz.to/xEEzaETd/nokturnal-mortum-kolovorot-mp4

Návrat na "Video ripy"

Kto je prítomný

Užívatelia prezerajúci toto fórum: Žiadny pripojení užívatelia