Linkin Park

DVD Ripy,TV Ripy, VHS Ripy, Cam Ripy, atd..
Tesarik
Nový človiečik
Nový človiečik
Príspevky: 36
Dátum registrácie: 29 Okt 2012, 22:40

Linkin Park

Príspevokod užívateľa Tesarik » 29 Jan 2013, 00:26

Obrázok

Obrázok

Size: 1500 Mb
Audio: 128 Kbps
Resolution: 704x372
Data Rate: 2241Kbps
Time: 91 Min.
Dvdrip: Xivid
ProShot
Year: 2012

Tracklist:

01. TINFOIL
02. Faint
03. Papercut
04. With You
05. Runaway
06. Given Up
07. Blackout
08. Somewhere I Belong
09. New Divide
10. LIES GREED MISERY
11. Points Of Authority
12. Waiting For The End
13. Breaking The Habit
14. LOATR/SOTD/Iridescent
15. The Catalyst
16. What I've Done
17. Crawling
18. One Step Closer
19. BURN IT DOWN
20. In The End
21. Numb
22. Bleed It Out

Kód: Vybrať všetko

http://download.hellshare.cz/linkin-park-los-angeles-x-games-music-2012-avi/11272015
pagáč
Metalový fanúšik
Metalový fanúšik
Príspevky: 243
Dátum registrácie: 03 Apr 2013, 12:55
Kontaktovať užívateľa:

Re: Linkin Park

Príspevokod užívateľa pagáč » 28 Apr 2013, 15:08

jack86 napísal:Obrázok

LP.Live.From.Madison.Square.Garden..2011.AC3.480i.HDTVRip.XviD

Kód: Vybrať všetko

LP.Live.From.Madison.Square.Garden..2011.AC3.480i.HDTVRip.XviD
Format                                   : AVI
Format/Info                              : Audio Video Interleave
File size                                : 1.29 GiB
Duration                                 : 1h 25mn
Overall bit rate                         : 2 158 Kbps

Video
ID                                       : 0
Format                                   : MPEG-4 Visual
Format profile                           : Advanced Simple@L5
Format settings, BVOP                    : 2
Format settings, QPel                    : No
Format settings, GMC                     : No warppoints
Format settings, Matrix                  : Default (H.263)
Codec ID                                 : XVID
Codec ID/Hint                            : XviD
Duration                                 : 1h 25mn
Bit rate                                 : 1 954 Kbps
Width                                    : 720 pixels
Height                                   : 400 pixels
Display aspect ratio                     : 16:9
Frame rate                               : 29.970 fps
Color space                              : YUV
Chroma subsampling                       : 4:2:0
Bit depth                                : 8 bits
Scan type                                : Progressive
Compression mode                         : Lossy
Bits/(Pixel*Frame)                       : 0.226
Stream size                              : 1.17 GiB (91%)
Writing library                          : XviD 1.2.1 (UTC 2008-12-04)

Audio
ID                                       : 1
Format                                   : AC-3
Format/Info                              : Audio Coding 3
Mode extension                           : CM (complete main)
Format settings, Endianness              : Big
Codec ID                                 : 2000
Duration                                 : 1h 25mn
Source duration                          : 1h 25mn
Bit rate mode                            : Constant
Bit rate                                 : 192 Kbps
Channel(s)                               : 6 channels
Channel positions                        : Front: L C R, Side: L R, LFE
Sampling rate                            : 44.1 KHz
Bit depth                                : 16 bits
Compression mode                         : Lossy
Stream size                              : 118 MiB (9%)
Alignment                                : Aligned on interleaves
Interleave, duration                     : 35 ms (1.04 video frame)



1x999 MB / 1x366.14 MB

Kód: Vybrať všetko

http://sharerapid.biz/stahuj/dnp6011f?dealer_id=29875
http://sharerapid.biz/stahuj/rcdf3eg0?dealer_id=29875


Kód: Vybrať všetko

http://euroshare.eu/file/15611129/e0811ergrusnsdmofvlpl.part1.rar
http://euroshare.eu/file/15611130/e0811ergrusnsdmofvlpl.part2.rar


Kód: Vybrať všetko

http://www.fastshare.cz/2093731/e0811ergrusnsdmofvlpl.part1.rar
http://www.fastshare.cz/2093732/e0811ergrusnsdmofvlpl.part2.rar


Kód: Vybrať všetko

http://download.hellshare.com/e0811ergrusnsdmofvlpl-part1-rar/12716153/
http://download.hellshare.com/e0811ergrusnsdmofvlpl-part2-rar/12716185/


Kód: Vybrať všetko

http://czshare.com/5181551/e0811erGruSnsdMoFvLPL.part1.rar
http://czshare.com/5181585/e0811erGruSnsdMoFvLPL.part2.rar


Kód: Vybrať všetko

http://ul.to/8m7tz7jj/e0811erGruSnsdMoFvLPL.part1.rar
http://ul.to/nrpxxrme/e0811erGruSnsdMoFvLPL.part2.rar



Upload 3% na oprawu dat

no pass

Návrat na "Video ripy"

Kto je prítomný

Užívatelia prezerajúci toto fórum: Žiadny pripojení užívatelia